Mật Danh IRIS 1 – ViE 1080p Bluray AC3 60Fps – Ultra-Vision

Mật Danh IRIS 1 – ViE 1080p Bluray AC3 60Fps – Ultra-Vision

Oct. 14, 2009
Your rating: 0
9 1 vote
Trulli

Creator

Creator

Cast

Im Soo-hyang isKim Yeon-hwa
Kim Yeon-hwa
Lee Joon isYoon Shi-hyuk
Yoon Shi-hyuk
Yoon Soy isPark Tae-hee
Park Tae-hee
Baek Sung-hyun isKang Byung-jin
Kang Byung-jin
Jang Hyuk isJung Yoo-gun
Jung Yoo-gun
Lee Da-hae isJi Soo-yeon
Ji Soo-yeon
Oh Yeon-soo isChoi Min
Choi Min
Yoon Doo-joon isSeo Hyun-woo
Seo Hyun-woo

Video trailer

Tóm Tắt

Hàn Quốc, quốc gia cuối cùng được phân chia trên thế giới, liên tục chịu sức ép về chính trị và quân sự với các quốc gia xung quanh đặc biệt là về chính trị và quân sự với các quốc gia xung quanh đặc biệt là về vấn đề hạt nhân của Bắc Triều Tiên. Để tránh chiến tranh Triều Tiên lần thứ hai, đặc vụ mật NSS tồn tại vì an ninh quốc gia trên bán đảo Hàn Quốc. Đặc vụ NSS được huấn luyện trở thành những chuyên gia, họ dùng bất cứ cách nào để hoàn thành nhiệm vụ. Họ chính thức không tồn tại và không được thừa nhận hay được bảo vệ bởi chính phủ. Mặc dù họ được huấn luyện thành những sát thủ máu lạnh, có một điều cấm kị mà họ không thể né tránh được, đó là tình yêu.


Complete name               : Iris 2009 E20 ViE 1080p Blu-ray AC3 x264 60Fps - Ultra-Vision@.mkv
Format                      : Matroska
Format version              : Version 4
File size                   : 9.24 GiB
Duration                    : 1 h 3 min
Overall bit rate            : 20.8 Mb/s
Cover                       : Yes


Attachments                 : Cover.jpg
Video
ID                          : 1
Format                      : AVC
Format/Info                 : Advanced Video Codec
Format profile              : Main@L4.2
Codec ID                    : V_MPEG4/ISO/AVC
Duration                    : 1 h 3 min
Bit rate mode               : Constant
Bit rate                    : 20.0 Mb/s
Width                       : 1 920 pixels
Height                      : 1 080 pixels
Display aspect ratio        : 16:9
Frame rate mode             : Constant
Frame rate                  : 60.000 FPS
Color space                 : YUV
Chroma subsampling          : 4:2:0
Bit depth                   : 8 bits
Scan type                   : Progressive
Bits/(Pixel*Frame)          : 0.161
Stream size                 : 8.81 GiB (95%)
Default                     : Yes
Forced                      : No
Audio #1
ID                          : 2
Format                      : AC-3
Format/Info                 : Audio Coding 3
Commercial name             : Dolby Digital
Codec ID                    : A_AC3
Duration                    : 1 h 3 min
Bit rate mode               : Constant
Bit rate                    : 448 kb/s
Channel(s)                  : 2 channels
Channel layout              : L R
Sampling rate               : 48.0 kHz
Frame rate                  : 31.250 FPS (1536 SPF)
Compression mode            : Lossy
Delay relative to video     : -43 ms
Stream size                 : 203 MiB (2%)
Language                    : Vietnamese
Service kind                : Complete Main
Default                     : Yes
Forced                      : Yes
Audio #2
ID                          : 3
Format                      : E-AC-3
Format/Info                 : Enhanced AC-3
Commercial name             : Dolby Digital Plus
Codec ID                    : A_EAC3
Duration                    : 1 h 3 min
Bit rate mode               : Constant
Bit rate                    : 128 kb/s
Channel(s)                  : 2 channels
Channel layout              : L R
Sampling rate               : 48.0 kHz
Frame rate                  : 31.250 FPS (1536 SPF)
Compression mode            : Lossy
Delay relative to video     : -43 ms
Stream size                 : 58.1 MiB (1%)
Language                    : Korean
Service kind                : Complete Main
Default                     : No
Forced                      : No
Audio #3
ID                          : 4
Format                      : AAC LC
Format/Info                 : Advanced Audio Codec Low Complexity
Codec ID                    : A_AAC-2
Duration                    : 1 h 3 min
Bit rate                    : 384 kb/s
Channel(s)                  : 2 channels
Channel layout              : L R
Sampling rate               : 48.0 kHz
Frame rate                  : 46.875 FPS (1024 SPF)
Compression mode            : Lossy
Delay relative to video     : -43 ms
Stream size                 : 174 MiB (2%)
Language                    : Korean
Default                     : No
Forced                      : No
Mật Danh IRIS 1 – ViE 1080p Bluray AC3 60Fps – Ultra-Vision
Original title 아이리스
TMDb Rating 7.7 18 votes
First air date Oct. 14, 2009
Last air date Apr. 18, 2013
Seasons 2
Episodes 40
Average Duration 60 minutes

Similar titles

Loki Thần Lừa Lọc 2160p WEB-DL DDP5.1 Atmos HDR HEVC-TOMMY
Tân Tam Quốc Diễn Nghĩa 2010 – ViE 1080i BluRay REMUX DD5.1
Thần Điêu Đại Hiệp
Ỷ Thiên Đồ Long Ký
Tân Ỷ Thiên Đồ Long Ký – Heavenly Sword and Dragon Slaying Sabre
Tây Du Ký
Thiên Long Bát Bộ 1997 – Thuyết Minh – USLT 1080p
Thiên Long Bát Bộ – Demi Gods & Semi Devils
The Bible 2013 – ViE 1080p Bluray DTS 5.1-HQR