Tân Tam Quốc Diễn Nghĩa 2010 – ViE 1080i BluRay REMUX DD5.1

Tân Tam Quốc Diễn Nghĩa 2010 – ViE 1080i BluRay REMUX DD5.1

Your rating: 0
9 1 vote
Trulli

Creator

Creator

Cast

Tóm Tắt

Tân “Tam Quốc diễn nghĩa” – series phim đắt giá nhất trong lịch sử sản xuất phim truyền hình của Trung Quốc với số tiền bản quyền cao kỷ lục.

Theo Crienglish, series phim truyền hình dài 95 tập này đã được bán đứt cho 4 đài truyền hình khu vực với giá cao kỷ lục: 160 triệu Nhân Dân Tệ (khoảng 320 tỉ VNĐ). Như vậy là số tiền bản quyền trung bình của mỗi tập phim dung lượng 45 phút này tương đương 3,6 tỉ VNĐ. Những con số này cũng đồng nghĩa với việc tân “Tam Quốc diễn nghĩa” là series phim truyền hình đắt nhất trong lịch sử Trung Quốc. Tuy đã được bán với giá cao như vậy nhưng đại diện nhà sản xuất cho biết họ không thu được lợi nhuận là mấy so với các bộ phim truyền hình bình bình thường khác. Nguyên nhân là chi phí sản xuất phiên bản mới của “Tam Quốc diễn nghĩa” quá cao do đầu tư vào phần phục trang quá đắt đỏ, dựng các cảnh giao chiến quá tốn kém và phim phải quay ngoại cảnh quá nhiều.

Tam quốc chí là một sử liệu chính thức và có căn cứ về thời đại Tam Quốc của Trung Quốc từ năm 189 đến năm 280, do Trần Thọ biên soạn vào thế kỉ thứ 3. Tác phẩm này hình thành từ các mẩu chuyện nhỏ kể về các nước Ngụy, Thục và Ngô của thời đại này, đồng thời là nền tảng cho cuốn tiểu thuyết lịch sử rất phổ biến là Tam quốc diễn nghĩa được viết vào thế kỉ 14. Vào cuối thời Nguyên đầu thời Minh, La Quán Trung đã căn cứ vào các truyền thuyết dân gian, thoại bản, hý khúc cùng các tài liệu lịch sử là Tam quốc chí của Trần Thọ và Tam quốc chí chú của Bùi Tùng Chi để viết nên tác phẩm Tam quốc chí thông tục diễn nghĩa (gọi tắt là Tam quốc diễn nghĩa). Tiểu thuyết này có ảnh hưởng rất lớn ở Trung Quốc và nhiều nước châu Á. So với Tam quốc chí là chính sử, thì Tam quốc diễn nghĩa là tiểu thuyết diễn nghĩa lịch sử, thêm thắt rất nhiều truyền thuyết, truyện kể dân gian

Lấy đề tài từ bộ tiểu thuyết kinh điển Tam Quốc diễn nghĩa và cuốn sử ký Tam Quốc chí. Tam Quốc thông qua thuật lại quá trình từ cuối đời Đông Hán quần hùng cát cứ đến khi thiên hạ quy về nhà Tấn, thể hiện tư tưởng triết học nhân văn, sách lược quân sự, chính trị,…Phim lấy 6 nhân vật trung tâm là Gia Cát Lượng, Tào Tháo, Lưu Bị, Tôn Quyền, Chu Du và Tư Mã Ý, bên cạnh đó là tuyến nhân vật chính và phụ đông đảo: Lã Bố, Đổng Trác, Vương Doãn, Viên Thiệu, Tôn Sách, Lục Tuần…Ngoài trục chính là quá trình hình thành, phát triển thế chân vạc giữa 3 nước Ngụy, Thục, Ngô, bộ phim lần này còn khai thác những tuyến phụ, như tranh giành ngôi thứ trong gia đình họ Tào, rắc rối tình ái giữa Tào Phi, Tào Thực và nàng Chân Phi, bất đồng về chiến lược giữa Gia Cát Lượng và Lưu Bị, mâu thuẫn giữa Chu Du và Tôn Quyền…

Bộ phim được xem như “con cưng” của Tổng cục truyền thông Trung Quốc, bắt đầu viết kịch bản từ năm 2004, qua 5 lần chỉnh sửa, chính thức bấm máy vào tháng 9/2008. Bộ phim quy tụ lực lượng diễn viên hùng hậu với dàn sao đến từ cả Trung Quốc đại lục, Hongkong và Đài Loan với kinh phí đầu tư khổng lồ.

Complete name : Three.Kingdoms.2010.Ep01.ViE.1080i.BluRay.REMUX.DD5.1-HDVN.mkv
Format : Matroska
Format version : Version 4
File size : 9.87 GiB
Duration : 43 min 25 s
Overall bit rate mode : Variable
Overall bit rate : 32.6 Mb/s
Movie name : Three.Kingdoms.2010.Ep01.ViE.1080i.BluRay.REMUX.DD5.1-HDVN
Encoded date : UTC 2020-01-07 02:21:05
Writing application : mkvmerge v38.0.0 ('The Silent Type') 64-bit
Writing library : libebml v1.3.9 + libmatroska v1.5.2

Video
ID : 1
Format : AVC
Format/Info : Advanced Video Codec
Format profile : High@L4.1
Format settings : CABAC / 4 Ref Frames
Format settings, CABAC : Yes
Format settings, Reference frames : 4 frames
Codec ID : V_MPEG4/ISO/AVC
Duration : 43 min 25 s
Bit rate mode : Variable
Bit rate : 30.8 Mb/s
Maximum bit rate : 40.0 Mb/s
Width : 1 920 pixels
Height : 1 080 pixels
Display aspect ratio : 16:9
Frame rate mode : Constant
Frame rate : 29.970 (30000/1001) FPS
Color space : YUV
Chroma subsampling : 4:2:0
Bit depth : 8 bits
Scan type : MBAFF
Scan type, store method : Interleaved fields
Scan order : Top Field First
Bits/(Pixel*Frame) : 0.496
Stream size : 9.35 GiB (95%)
Title : REMUX By Hoai Trung - HDVN
Default : Yes
Forced : No

Audio #1
ID : 2
Format : AC-3
Format/Info : Audio Coding 3
Commercial name : Dolby Digital
Codec ID : A_AC3
Duration : 43 min 25 s
Bit rate mode : Constant
Bit rate : 448 kb/s
Channel(s) : 6 channels
Channel layout : L R C LFE Ls Rs
Sampling rate : 48.0 kHz
Frame rate : 31.250 FPS (1536 SPF)
Compression mode : Lossy
Stream size : 139 MiB (1%)
Language : Chinese
Service kind : Complete Main
Default : Yes
Forced : Yes

Audio #2
ID : 4
Format : AC-3
Format/Info : Audio Coding 3
Commercial name : Dolby Digital
Codec ID : A_AC3
Duration : 43 min 25 s
Bit rate mode : Constant
Bit rate : 640 kb/s
Channel(s) : 6 channels
Channel layout : L R C LFE Ls Rs
Sampling rate : 48.0 kHz
Frame rate : 31.250 FPS (1536 SPF)
Compression mode : Lossy
Stream size : 199 MiB (2%)
Title : HTV2 5.1 l Vinadot@Share l Released On NETHD.ORG
Language : Vietnamese
Service kind : Complete Main
Default : No
Forced : No

Audio #3
ID : 5
Format : AC-3
Format/Info : Audio Coding 3
Commercial name : Dolby Digital
Codec ID : A_AC3
Duration : 43 min 25 s
Bit rate mode : Constant
Bit rate : 640 kb/s
Channel(s) : 6 channels
Channel layout : L R C LFE Ls Rs
Sampling rate : 48.0 kHz
Frame rate : 31.250 FPS (1536 SPF)
Compression mode : Lossy
Stream size : 199 MiB (2%)
Title : Thuyết Minh 5.1 l Vinadot@Share l Released On NETHD.ORG
Language : Vietnamese
Service kind : Complete Main
Default : No
Forced : No

Text
ID : 3
Format : UTF-8
Codec ID : S_TEXT/UTF8
Codec ID/Info : UTF-8 Plain Text
Duration : 38 min 22 s
Bit rate : 81 b/s
Count of elements : 602
Stream size : 22.9 KiB (0%)
Language : Vietnamese
Default : Yes
Forced : Yes
Tân Tam Quốc Diễn Nghĩa 2010 – ViE 1080i BluRay REMUX DD5.1
Original title 三国
TMDb Rating 7 10 votes
First air date May. 02, 2010
Last air date Aug. 05, 2010
Seasons 1
Episodes 95
Average Duration 60 minutes

Similar titles

The Bible 2013 – ViE 1080p Bluray DTS 5.1-HQR
Thần Điêu Đại Hiệp
Tân Ỷ Thiên Đồ Long Ký – Heavenly Sword and Dragon Slaying Sabre
Thiên Long Bát Bộ – Demi Gods & Semi Devils
Mật Danh IRIS 1 – ViE 1080p Bluray AC3 60Fps – Ultra-Vision
Ỷ Thiên Đồ Long Ký
Thiên Long Bát Bộ 1997 – Thuyết Minh – USLT 1080p
Loki Thần Lừa Lọc 2160p WEB-DL DDP5.1 Atmos HDR HEVC-TOMMY