What's happening?

Cuộc Chiến Kim Chi 2 (2010) – 720p HDTV x264-KiSHD

Cuộc Chiến Kim Chi 2 (2010) – 720p HDTV x264-KiSHD

Le Grand Chef 2: Kimchi BattleJan. 28, 2010South Korea119 Min.Not Rated
Your rating: 0
7 1 vote

Video Sources 10 Views Report Error

  • Trailer
Trulli

Tóm Tắt Phim Cuộc Chiến Kim Chi 2 (2010)

Món ăn truyền thống Hàn Quốc, hay còn gọi là hansik trong tiếng Hàn, đang trở nên ngày một nổi tiếng đối với du khách nước ngoài và là một sản phẩm du lịch quan trọng trong những năm qua. Người nước ngoài bắt đầu quan tâm tới ẩm thực Hàn Quốc kể từ khi bộ phim “Nàng Dae Jang-geum” được phát sóng trên khắp thế giới. Tiếp nối thành công này và cũng để hưởng ứng chương trình toàn cầu hóa ẩm thực Hàn Quốc của chính phủ, các nhà làm phim Hàn Quốc đã chuyển thể cuốn truyện tranh “Thực khách” của tác giả Hur Young-man thành phim điện ảnh và truyền hình.

“Thực khách 2” là bộ phim truyền hình thứ 2 và cũng là tác phẩm mới nhất trong series phim về văn hóa ẩm thực Hàn Quốc. Trong khi “Thực khách 1” phần lớn tập trung vào cuộc so tài giữa 2 đầu bếp siêu hạng trong cuộc thi ẩm thực truyền thống quốc gia thì phiên bản phim truyền hình là câu chuyện về một đầu bếp lừng danh chuyển sang nghề bán dạo, ngày đêm rong ruổi trên chiếc xe tải đi khắp hang cùng ngõ hẻm để tìm kiếm tinh hoa của ẩm thực Hàn Quốc. Trái ngược lại, “Thực khách 2” khai thác những khía cạnh liên quan tới món kimchi, kết hợp với chủ đề về tình mẫu tử và gia đình.

Trong một lần thăm Nhật Bản, tổng thống Hàn Quốc đã sốc khi ông được giới thiệu món kimchi là “kimuchi”, phiên bản Nhật của món ăn thuần Hàn này. Trở về nước, ông quyết định xúc tiến quảng bá kim chi ra toàn thế giới. Nữ đầu bếp Jang-eun và người con trai của cha dượng Seong-chan tranh tài trong một cuộc thi tìm kiếm hương vị đích thực của kimchi với mục đích khác nhau. Jang-eun muốn đóng cửa nhà hàng mà mẹ cô, một nghệ sỹ giải trí truyền thống, đã gây dựng trong hàng chục năm qua. Nhưng nhà hàng này cũng là nơi Seong-chan trưởng thành dưới bàn tay chăm sóc của mẹ Jang-eun.
“Thực khách 2” không chỉ giới thiệu về món kimchi bắp cải nổi tiếng mà còn cả những loại kimchi của các vùng miền khác nhau trên khắp đất nước Hàn Quốc.

Thông Tin Video Cuộc Chiến Kim Chi 2 (2010)

Complete name                    : Le.Grand.Chef.2.Kimchi.Battle.2010.720p.HDTV.x264-KiSHD
Format                           : Matroska

File size                        : 4.38 GiB
Duration                         : 1h 58mn
Overall bit rate                 : 5 282 Kbps
Encoded date                     : UTC 2010-09-05 02:46:39
Writing application              : mkvmerge v2.9.5 ('Tu es le seul') built on Jun  7 2009 11:07:07
Writing library                  : libebml v0.7.7 + libmatroska v0.8.1
Video
ID                               : 1
Format                           : AVC
Format/Info                      : Advanced Video Codec
Format profile                   : High@L4.1
Format settings, CABAC           : Yes
Format settings, ReFrames        : 9 frames
Codec ID                         : V_MPEG4/ISO/AVC
Duration                         : 1h 58mn
Bit rate                         : 4 894 Kbps
Width                            : 1 280 pixels
Height                           : 544 pixels
Display aspect ratio             : 2.35:1
Frame rate                       : 29.970 fps
Color space                      : YUV
Chroma subsampling               : 4:2:0
Bit depth                        : 8 bits
Scan type                        : Progressive
Bits/(Pixel*Frame)               : 0.235
Stream size                      : 3.97 GiB (91%)
Writing library                  : x264 core 104 r1703 cd21d05
Encoding settings                : cabac=1 / ref=9 / deblock=1:-2:-1 / analyse=0x3:0x133 / me=umh / subme=9 / psy=1 / psy_rd=1.00:0.00 / mixed_ref=1 / me_range=48 / chroma_me=1 / trellis=2 / 8x8dct=1 / cqm=2 / deadzone=21,11 / fast_pskip=0 / chroma_qp_offset=-2 / threads=12 / sliced_threads=0 / nr=0 / decimate=0 / interlaced=0 / constrained_intra=0 / bframes=6 / b_pyramid=2 / b_adapt=2 / b_bias=0 / direct=3 / weightb=1 / open_gop=0 / weightp=2 / keyint=250 / keyint_min=25 / scenecut=40 / intra_refresh=0 / rc_lookahead=40 / rc=2pass / mbtree=0 / bitrate=4894 / ratetol=1.0 / qcomp=0.60 / qpmin=10 / qpmax=51 / qpstep=4 / cplxblur=20.0 / qblur=0.5 / vbv_maxrate=50000 / vbv_bufsize=50000 / ip_ratio=1.40 / pb_ratio=1.30 / aq=1:1.00 / nal_hrd=none
Language                         : Korean
Audio
ID                               : 2
Format                           : AC-3
Format/Info                      : Audio Coding 3
Mode extension                   : CM (complete main)
Codec ID                         : A_AC3
Duration                         : 1h 58mn
Bit rate mode                    : Constant
Bit rate                         : 384 Kbps
Channel(s)                       : 6 channels
Channel positions                : Front: L C R, Side: L R, LFE
Sampling rate                    : 48.0 KHz
Bit depth                        : 16 bits
Compression mode                 : Lossy
Stream size                      : 326 MiB (7%)
Language                         : Korean
Cuộc Chiến Kim Chi 2 (2010) – 720p HDTV x264-KiSHD
Original title 식객: 김치전쟁
IMDb Rating 6.2 217 votes
TMDb Rating 6.3 9 votes

Similar titles

Gái Gọi Hộp Đêm (2017) – BluRay 1080p AVC Dolby TrueHD Audio 7.1-MTeam
Giam Cầm (2021) – 2160p UHD Blu-ray HEVC DTS-HD MA 7.1-MMCLX
Bí Ẩn Vùng Ngoại Ô (2017)
Hoàng Phi Hồng (1991) – 1080p Blu-ray AVC TrueHD 7.1.iso
Tổng Tấn Công (2011) – 1080p BluRay REMUX AVC DTS-HD MA 5.1-EPSiLON
Tắc Kè Nhát Gan (2011) – BluRay 1080p DTS-HDMA AVC REMUX-FraMeSToR
Mắt Biếc 2019 – 1080p NF WEB-DL DDP5.1 x264 – Vietsub
Quyết Định Tối Thượng (1996) – mHD BluRay DD5.1 x264-EPiK_I-Max.VN
Vụ Khủng Bố Không Tưởng (2010) – 720p BluRay DTS x264-HiDt
Đế Chế Maya (2006) – ViE 1080p Blu-ray AVC LPCM 5.1
Điểm Tâm Ở Tiffany (1961) – 50th Anniversary Edition 1080p Blu-ray REMUX AVC DTS-HD MA.5.1 HDRoad
Cơn Bão Kinh Hoàng (2000) – 1080p BluRay x264 AC3 5.1-FGT