What's happening?

Harry Potter và Hòn Đá Phù Thủy 2001 – VIE 2160p UHD BluRay REMUX HEVC DTS-X 7.1-TVS

Harry Potter và Hòn Đá Phù Thủy 2001 – VIE 2160p UHD BluRay REMUX HEVC DTS-X 7.1-TVS

Harry Potter and the Philosopher's StoneNov. 16, 2001United Kingdom152 Min.PG
Your rating: 0
8 1 vote

Video Sources 46 Views Report Error

  • Trailer

Harry Potter và Hòn Đá Phù Thủy là bộ phim đầu tiên trong series phim “Harry Potter” được xây dựng dựa trên tiểu thuyết của nhà văn J.K.Rowling. Nhân vật chính của phim, Harry Potter – một cậu bé 11 tuổi sau khi mồ côi cha mẹ đã bị gửi đến nhà dì dượng của mình, gia đình Dursley. Tuy nhiên, cậu bé bị ngược đãi và không hề biết về thân phận thực sự của mình. Vào sinh nhật thứ 11 của Harry, một người lai khổng lồ là Rubeus Hagrid đã đến tìm cậu bé để đưa cậu về trường Pháp Thuật Hogwarts. Lúc này, Harry mới biết được mình là phù thủy và một phần câu chuyện về cha mẹ mình, những người đã bị Voldemort giết hại. Cùng với trí thông minh và lòng dũng cảm, cậu bé đã cùng những người bạn của mình khám phá những điều bí mật nguy hiểm về thế giới của phép thuật…


Disc title: Harry Potter và Hòn Đá Phù Thủy 2001 -  VIE 2160p UHD BluRay REMUX HEVC DTS-X 7.1-TVS
Size: 70.9 GiB
Duration : 2 h 18 min
Overall bit rate mode : Variable
Overall bit rate : 54.7 Mb/s
Movie name : HARRY POTTER 2007-4K-TVS
Video
ID : 1
Format : HEVC
Format/Info : High Efficiency Video Coding
Format profile : Main 10@L5.1@High
HDR format : SMPTE ST 2086, HDR10 compatible
Codec ID : V_MPEGH/ISO/HEVC
Duration : 2 h 18 min
Bit rate : 49.1 Mb/s
Width : 3 840 pixels
Height : 2 160 pixels
Display aspect ratio : 16:9
Frame rate mode : Constant
Frame rate : 23.976 (24000/1001) FPS
Color space : YUV
Chroma subsampling : 4:2:0 (Type 2)
Bit depth : 10 bits

Audio #1
ID : 2
Format : DTS XLL X
Format/Info : Digital Theater Systems
Commercial name : DTS-HD Master Audio
Codec ID : A_DTS
Duration : 2 h 18 min
Bit rate mode : Variable
Bit rate : 3 953 kb/s
Channel(s) : 8 channels
Channel(s)_Original : Object Based
ChannelLayout_Original : Object Based
Sampling rate : 48.0 kHz
Frame rate : 93.750 FPS (512 SPF)
Bit depth : 24 bits
Stream size : 3.82 GiB (7%)
Language : English
Default : Yes
Forced : No

Audio #2
ID : 5
Format : AC-3
Format/Info : Audio Coding 3
Commercial name : Dolby Digital
Codec ID : A_AC3
Duration : 2 h 18 min
Bit rate mode : Constant
Bit rate : 640 kb/s
Channel(s) : 6 channels
Channel layout : L R C LFE Ls Rs
Sampling rate : 48.0 kHz
Frame rate : 31.250 FPS (1536 SPF)
Compression mode : Lossy
Stream size : 633 MiB (1%)
Language : Vietnamese
Service kind : Complete Main
Default : No
Forced : Yes

Audio #3
ID : 6
Format : AC-3
Format/Info : Audio Coding 3
Commercial name : Dolby Digital
Codec ID : A_AC3
Duration : 2 h 18 min
Bit rate mode : Constant
Bit rate : 640 kb/s
Channel(s) : 2 channels
Channel layout : L R
Sampling rate : 48.0 kHz
Frame rate : 31.250 FPS (1536 SPF)
Compression mode : Lossy
Stream size : 633 MiB (1%)
Language : Vietnamese
Service kind : Complete Main
Default : No
Forced : No

Audio #4
ID : 7
Format : AC-3
Format/Info : Audio Coding 3
Commercial name : Dolby Digital
Codec ID : A_AC3
Duration : 2 h 18 min
Bit rate mode : Constant
Bit rate : 384 kb/s
Channel(s) : 6 channels
Channel layout : L R C LFE Ls Rs
Sampling rate : 48.0 kHz
Frame rate : 31.250 FPS (1536 SPF)
Compression mode : Lossy
Stream size : 380 MiB (1%)
Language : Vietnamese
Service kind : Complete Main
Default : No
Forced : No
Harry Potter và Hòn Đá Phù Thủy 2001 – VIE 2160p UHD BluRay REMUX HEVC DTS-X 7.1-TVS
Harry Potter và Hòn Đá Phù Thủy 2001 – VIE 2160p UHD BluRay REMUX HEVC DTS-X 7.1-TVS
Harry Potter và Hòn Đá Phù Thủy 2001 – VIE 2160p UHD BluRay REMUX HEVC DTS-X 7.1-TVS
Harry Potter và Hòn Đá Phù Thủy 2001 – VIE 2160p UHD BluRay REMUX HEVC DTS-X 7.1-TVS
Harry Potter và Hòn Đá Phù Thủy 2001 – VIE 2160p UHD BluRay REMUX HEVC DTS-X 7.1-TVS
Harry Potter và Hòn Đá Phù Thủy 2001 – VIE 2160p UHD BluRay REMUX HEVC DTS-X 7.1-TVS
Harry Potter và Hòn Đá Phù Thủy 2001 – VIE 2160p UHD BluRay REMUX HEVC DTS-X 7.1-TVS
Harry Potter và Hòn Đá Phù Thủy 2001 – VIE 2160p UHD BluRay REMUX HEVC DTS-X 7.1-TVS
Harry Potter và Hòn Đá Phù Thủy 2001 – VIE 2160p UHD BluRay REMUX HEVC DTS-X 7.1-TVS
Harry Potter và Hòn Đá Phù Thủy 2001 – VIE 2160p UHD BluRay REMUX HEVC DTS-X 7.1-TVS
Original title Harry Potter and the Philosopher's Stone
IMDb Rating 7.6 720,273 votes
TMDb Rating 7.9 21,682 votes

Director

Cast

Daniel Radcliffe isHarry Potter
Harry Potter
Rupert Grint isRon Weasley
Ron Weasley
Emma Watson isHermione Granger
Hermione Granger
Richard Harris isAlbus Dumbledore
Albus Dumbledore
Tom Felton isDraco Malfoy
Draco Malfoy
Alan Rickman isSeverus Snape
Severus Snape
Robbie Coltrane isRubeus Hagrid
Rubeus Hagrid
Maggie Smith isMinerva McGonagall
Minerva McGonagall
Richard Griffiths isVernon Dursley
Vernon Dursley
Ian Hart isProfessor Quirrell/Voldemort
Professor Quirrell/Voldemort

Similar titles

Chủng Tộc Bất Tử (2021) – 2160p WEB-DL DDP5.1 Atmos H.265-EVO
Chiến Binh Rambo (1982) – 2160p Bluray Remux HDR DTS-HDMA 5.1
Võ Sĩ Giác Đấu (2000) – 2N1 UHD TW Blu-ray 2160p HEVC DTS-X 7.1-TTG.iso
Truy Tìm Tượng Phật 2 (2008) – 1080p Blu-ray AVC VC-1 DTS-HD MA 5.1.iso
Oan Hồn (1990) – 1080p 4K Remastered Blu-ray AVC TrueHD 5.1 – KiFFLOM
Quyết Định Tối Thượng (1996) – mHD BluRay DD5.1 x264-EPiK_I-Max.VN
Mỹ Nhân Ngư – BluRay 1080p x265 10bit 2Audio MNHD-FRDS
Người Sắt (2008) – UHD BluRay 2160p HEVC TrueHD Atmos 7.1 BeyondHD.iso
Ánh Sao Ma Thuật (2007) – BluRay 1080p DTS x264 dxva-EuReKA
Ma Thuật Tình Yêu (2011) – ViE 720p BluRay DD5.1 x264-EbP
Thập Diện Mai Phục (2004) – HKG 1080p Blu-ray AVC LPCM 5.1-PTer.iso
Tắc Kè Nhát Gan (2011) – BluRay 1080p DTS-HDMA AVC REMUX-FraMeSToR