What's happening?

Hoàng Phi Hồng (1992) – 1080p Blu-ray AVC TrueHD 7.1.iso

Hoàng Phi Hồng (1992) – 1080p Blu-ray AVC TrueHD 7.1.iso

Once Upon a Time in China ll Apr. 16, 1992Hong Kong113 Min.R
Your rating: 0
8 1 vote

Video Sources 40 Views Report Error

  • Trailer
Trulli

Sau phần 1 rất thành công của bộ phim Hoàng Phi Hồng 1 được sản xuất năm 1991 do nam diễn viên Lý Liên Kiệt thủ vai, Phần 2 của phim với tựa tiếng anh là Once Upon A Time In China 2 tiếp tục ra mắt khán giả vào năm 1992 với những pha võ thuật đẹp mắt . Cái tên Hoàng Phi Hồng đã đưa tên tuổi của Lý Liên Kiệt ngày càng càng được biết đến rộng rãi hơn không chỉ ở Trung Quốc mà còn ở trên khắp thế giới. Phim Hoàng Phi Hồng phần 2 lấy bối cảnh vào thời Mãn Thanh khi các chính sách mở cửa của triều đình phong kiến được tiến hành một cách hỗn loạn, mối quan hệ chính trị giữa ba nước Anh – Trung – Nhật vẫn còn là một ẩn số khó đoán. Trong khi triều đình chỉ chăm chăm đàm phán, duy trì mối quan hệ hợp tác với người Anh, lúc bấy giờ, Bạch Liên giáo đang hoành hành khắp nơi. Lợi dụng tinh thần yêu nước của những người dân lương thiện, chúng giả thần giả quỷ, lừa gạt không biết bao nhiêu là tiền của của dân lành. Sự an nguy của đồng bào lại đặt vào tay Hoàng sư phụ. xem phim Hoàng Phi Hồng phần 2 HD vietsub bạn còn được mãn nhãn với màn đấu võ được đánh giá là đẹp nhất trong lịch sử điện ảnh phim võ thuật Trung Quốc giữa Lý liên Kiệt và Chung Tử Đơn với đẳng cấp cao đem lại rất nhiều cảm xúc cho người xem!


once.upon.a.time.in.china.ii.1992.remastered.1080p.bluray.x264-valis.mkv
Format : Matroska
Format version : Version 4
File size : 10.9 GiB
Duration : 1 h 53 min
Overall bit rate mode : Variable
Overall bit rate : 13.8 Mb/s
Encoded date : UTC 2018-12-23 07:09:58
Writing application : mkvmerge v29.0.0 ('Like It Or Not') 64-bit
Writing library : libebml v1.3.6 + libmatroska v1.4.9

Video
ID : 1
Format : AVC
Format/Info : Advanced Video Codec
Format profile : High@L4.1
Format settings : CABAC / 5 Ref Frames
Format settings, CABAC : Yes
Format settings, RefFrames : 5 frames
Codec ID : V_MPEG4/ISO/AVC
Duration : 1 h 53 min
Bit rate : 13.1 Mb/s
Width : 1 920 pixels
Height : 808 pixels
Display aspect ratio : 2.40:1
Frame rate mode : Constant
Frame rate : 23.976 (24000/1001) FPS
Color space : YUV
Chroma subsampling : 4:2:0
Bit depth : 8 bits
Scan type : Progressive
Bits/(Pixel*Frame) : 0.351
Stream size : 10.3 GiB (95%)
Writing library : x264 core 157 r2935 545de2f
Encoding settings : cabac=1 / ref=5 / deblock=1:-3:-3 / analyse=0x3:0x133 / me=umh / subme=11 / psy=1 / psy_rd=1.00:0.00 / mixed_ref=1 / me_range=64 / chroma_me=1 / trellis=2 / 8x8dct=1 / cqm=0 / deadzone=21,11 / fast_pskip=0 / chroma_qp_offset=-2 / threads=9 / lookahead_threads=2 / sliced_threads=0 / nr=0 / decimate=1 / interlaced=0 / bluray_compat=0 / constrained_intra=0 / bframes=12 / b_pyramid=2 / b_adapt=2 / b_bias=0 / direct=3 / weightb=1 / open_gop=0 / weightp=2 / keyint=240 / keyint_min=23 / scenecut=40 / intra_refresh=0 / rc_lookahead=60 / rc=2pass / mbtree=0 / bitrate=13062 / ratetol=1.0 / qcomp=0.60 / qpmin=0 / qpmax=69 / qpstep=4 / cplxblur=20.0 / qblur=0.5 / vbv_maxrate=62500 / vbv_bufsize=78125 / nal_hrd=none / filler=0 / ip_ratio=1.40 / pb_ratio=1.30 / aq=1:0.70
Default : Yes
Forced : No

Audio
ID : 2
Format : FLAC
Format/Info : Free Lossless Audio Codec
Codec ID : A_FLAC
Duration : 1 h 52 min
Bit rate mode : Variable
Bit rate : 736 kb/s
Channel(s) : 2 channels
Channel layout : L R
Sampling rate : 48.0 kHz
Frame rate : 11.719 FPS (4096 SPF)
Bit depth : 24 bits
Compression mode : Lossless
Stream size : 594 MiB (5%)
Title : Cantonese
Writing library : libFLAC 1.2.1 (UTC 2007-09-17)
Language : Chinese
Default : Yes
Forced : No
Hoàng Phi Hồng (1992) – 1080p Blu-ray AVC TrueHD 7.1.iso
Hoàng Phi Hồng (1992) – 1080p Blu-ray AVC TrueHD 7.1.iso
Hoàng Phi Hồng (1992) – 1080p Blu-ray AVC TrueHD 7.1.iso
Hoàng Phi Hồng (1992) – 1080p Blu-ray AVC TrueHD 7.1.iso
Hoàng Phi Hồng (1992) – 1080p Blu-ray AVC TrueHD 7.1.iso
Hoàng Phi Hồng (1992) – 1080p Blu-ray AVC TrueHD 7.1.iso
Hoàng Phi Hồng (1992) – 1080p Blu-ray AVC TrueHD 7.1.iso
Hoàng Phi Hồng (1992) – 1080p Blu-ray AVC TrueHD 7.1.iso
Hoàng Phi Hồng (1992) – 1080p Blu-ray AVC TrueHD 7.1.iso
Hoàng Phi Hồng (1992) – 1080p Blu-ray AVC TrueHD 7.1.iso
Original title 黃飛鴻之二 男兒當自強
IMDb Rating 7.4 9,664 votes
TMDb Rating 7.2 173 votes

Director

Tsui Hark
Director

Cast

Jet Li isWong Fei Hung
Wong Fei Hung
Donnie Yen isCommander Lan
Commander Lan
David Chiang isLuke Ho-Dung
Luke Ho-Dung
Xiong Xin-Xin isPriest Gao Kung
Priest Gao Kung
Yen Shi-Kwan isGovernor Chung
Governor Chung
William Ho Ka-Kui isInnkeeper Mak
Innkeeper Mak
Paul Fonoroff isBritish Consul
British Consul

Similar titles

Quyết Định Tối Thượng (1996) – mHD BluRay DD5.1 x264-EPiK_I-Max.VN
Cuộc Chiến Kim Chi 2 (2010) – 720p HDTV x264-KiSHD
Điệp Vụ Tokyo 2000 – Blu-ray 1080p AVC TrueHD 5.1-REGRET.iso
Chiến Binh Rambo 3 (1988) – 2160p Bluray Remux HDR DTS-HDMA 5.1
Mỹ Nhân Ngư – BluRay 1080p x265 10bit 2Audio MNHD-FRDS
Người trong giang hồ 5 – 1080p NF WEB-DL DDP2.0 x264-Ao
Chiến Lang 2 (2017) – 1080p Blu-ray Remux AVC DTS-HD MA.7.1 HDT
Thái Quyền Đo Ván (2010) – 720p BluRay x264-METH
Trung Hoa Bịp Vương (2000) – Blu-ray 1080p AVC TrueHD 5.1-CHDBits.iso
Chủng Tộc Bất Tử (2021) – 2160p WEB-DL DDP5.1 Atmos H.265-EVO
Chiến Binh Rambo (1982) – 2160p Bluray Remux HDR DTS-HDMA 5.1
Cá Mập Nước Ngọt (2016) – 720p hdtv x264