What's happening?

Mắt Biếc 2019 – 1080p NF WEB-DL DDP5.1 x264 – Vietsub

Mắt Biếc 2019 – 1080p NF WEB-DL DDP5.1 x264 – Vietsub

Tình đầu, một thời cứ ngỡ một đờiDec. 20, 2019Vietnam117 Min.Not Rated
Your rating: 0
7.5 2 votes

Video Sources 50 Views Report Error

  • Trailer

Đạo diễn Victor Vũ trở lại với một tác phẩm chuyển thể từ truyện ngắn cùng tên nổi tiếng của nhà văn Nguyễn Nhật Ánh: Mắt Biếc. Phim kể về chuyện tình đơn phương của chàng thanh niên Ngạn dành cho cô bạn từ thuở nhỏ Hà Lan.


Complete name                  : Dreamy.Eyes.2019.1080p.NF.WEB-DL.DDP5.1.x264.mkv
Format                         : Matroska
Format version                 : Version 4
File size                      : 3.64 GiB
Duration                       : 1 h 56 min
Overall bit rate mode          : Variable
Overall bit rate               : 4 461 kb/s
Encoded date                   : UTC 2021-07-01 07:56:32
Writing application            : mkvmerge v57.0.0 ('Till The End') 64-bit
Writing library                : libebml v1.4.2 + libmatroska v1.6.4 / Lavf58.31.104

Video
ID                             : 1
Format                         : AVC
Format/Info                    : Advanced Video Codec
Format profile                 : Main@L4
Format settings                : CABAC / 3 Ref Frames
Format settings, CABAC         : Yes
Format settings, Reference fra : 3 frames
Codec ID                       : V_MPEG4/ISO/AVC
Duration                       : 1 h 56 min
Bit rate mode                  : Variable
Bit rate                       : 3 818 kb/s
Nominal bit rate               : 5 800 kb/s
Maximum bit rate               : 8 700 kb/s
Width                          : 1 920 pixels
Height                         : 1 080 pixels
Display aspect ratio           : 16:9
Frame rate mode                : Constant
Frame rate                     : 24.000 FPS
Color space                    : YUV
Chroma subsampling             : 4:2:0
Bit depth                      : 8 bits
Scan type                      : Progressive
Bits/(Pixel*Frame)             : 0.077
Stream size                    : 3.12 GiB (86%)
Writing library                : x264 core 148 r2722 1b0121b
Encoding settings              : cabac=1 / ref=3 / deblock=1:0:0 / analyse=0x1:0x111 / me=umh / subme=10 / psy=1 / psy_rd=1.00:0.00 / mixed_ref=1 / me_range=24 / chroma_me=1 / trellis=2 / 8x8dct=0 / cqm=0 / deadzone=21,11 / fast_pskip=1 / chroma_qp_offset=-2 / threads=8 / lookahead_threads=1 / sliced_threads=0 / nr=0 / decimate=1 / interlaced=0 / bluray_compat=0 / stitchable=1 / constrained_intra=0 / bframes=2 / b_pyramid=0 / b_adapt=2 / b_bias=0 / direct=3 / weightb=1 / open_gop=0 / weightp=2 / keyint=250 / keyint_min=24 / scenecut=0 / intra_refresh=0 / rc_lookahead=48 / rc=2pass / mbtree=1 / bitrate=5800 / ratetol=1.0 / qcomp=0.50 / qpmin=6 / qpmax=51 / qpstep=4 / cplxblur=20.0 / qblur=0.5 / vbv_maxrate=8700 / vbv_bufsize=11600 / nal_hrd=vbr / filler=0 / ip_ratio=1.40 / aq=1:1.00
Default                        : Yes
Forced                         : No

Audio
ID                             : 2
Format                         : E-AC-3
Format/Info                    : Enhanced AC-3
Commercial name                : Dolby Digital Plus
Codec ID                       : A_EAC3
Duration                       : 1 h 56 min
Bit rate mode                  : Constant
Bit rate                       : 640 kb/s
Channel(s)                     : 6 channels
Channel layout                 : L R C LFE Ls Rs
Sampling rate                  : 48.0 kHz
Frame rate                     : 31.250 FPS (1536 SPF)
Bit depth                      : 32 bits
Compression mode               : Lossy
Stream size                    : 535 MiB (14%)
Title                          : Vietnamese
Language                       : Vietnamese
Service kind                   : Complete Main
Default                        : Yes
Forced                         : No


Mắt Biếc 2019 – 1080p NF WEB-DL DDP5.1 x264 – Vietsub
Original title Mắt Biếc
IMDb Rating 7 783 votes
TMDb Rating 6.9 8 votes

Director

Victor Vũ
Director

Cast

Similar titles

Người Dơi: Hiệp Sĩ Bóng Đêm Trỗi Dậy UHD Blu-Ray 2160p HEVC DTS-HD MA 5.1-CHDBits.iso
Võ Sĩ Giác Đấu (2000) – 2N1 UHD TW Blu-ray 2160p HEVC DTS-X 7.1-TTG.iso
Oan Hồn (1990) – 1080p 4K Remastered Blu-ray AVC TrueHD 5.1 – KiFFLOM
Đế Chế Maya (2006) – ViE 1080p Blu-ray AVC LPCM 5.1
Quan Vân Trường (2011) – mHD BluRay x264-EPiK-Kulee
Ánh Sao Ma Thuật (2007) – BluRay 1080p DTS x264 dxva-EuReKA
Thời Khắc Quyết Định (2017) – 1080p BluRay REMUX AVC DTS-HD MA.5.1-EPSiLON
Huấn Luyện Viên Bóng Rổ (2005) – USA Blu-ray 1080p AVC TrueHD 5 1-Sn0wMaN.ISO
Cuộc Chiến Kim Chi 2 (2010) – 720p HDTV x264-KiSHD
Ông Trùm Mặt Sẹo (1983) – 1080p BluRay DTS x264 FoRM HDmovie
Công Lý Báo Thù (2009) – Unrated 1080p BluRay DTS x264-LolHD
Thập Diện Mai Phục (2004) – HKG 1080p Blu-ray AVC LPCM 5.1-PTer.iso