What's happening?

Oan Hồn (1990) – 1080p 4K Remastered Blu-ray AVC TrueHD 5.1 – KiFFLOM

Oan Hồn (1990) – 1080p 4K Remastered Blu-ray AVC TrueHD 5.1 – KiFFLOM

Jul. 12, 1990USA127 Min.PG-13
Your rating: 0
8 1 vote

Video Sources 31 Views Report Error

  • Trailer
Trulli

Nội dung phim xoay quanh tình yêu bất diệt của cặp uyên ương Sam (Patrick Swayze) và Molly (Demi Moore). Trước khi phải chia xa mãi mãi, Sam và Molly từng có những tháng ngày hạnh phúc bên nhau trong một ngôi nhà nhỏ tại New York.


Format : Matroska
Format version : Version 2
File size : 15.2 GiB
Duration : 2 h 6 min
Overall bit rate : 17.2 Mb/s
Movie name : Ghost 1990
Encoded date : UTC 2015-02-28 00:06:04
Writing application : mkvmerge v5.7.0 ('The Whirlwind') built on Jul 8 2012 20:08:51
Writing library : libebml v1.2.3 + libmatroska v1.3.0

Video
ID : 1
Format : AVC
Format/Info : Advanced Video Codec
Format profile : High@L4.1
Format settings, CABAC : Yes
Format settings, RefFrames : 4 frames
Codec ID : V_MPEG4/ISO/AVC
Duration : 2 h 6 min
Bit rate : 16.0 Mb/s
Width : 1 920 pixels
Height : 1 080 pixels
Display aspect ratio : 16:9
Frame rate mode : Constant
Frame rate : 23.976 (24000/1001) FPS
Color space : YUV
Chroma subsampling : 4:2:0
Bit depth : 8 bits
Scan type : Progressive
Bits/(Pixel*Frame) : 0.322
Stream size : 14.2 GiB (93%)
Writing library : x264 core 142 r2431+42 c69a006 tMod [8-bit@4:2:0 X86_64]
Encoding settings : cabac=1 / ref=4 / deblock=1:-3:-3 / analyse=0x3:0x133 / me=umh / subme=10 / psy=1 / fade_compensate=0.00 / psy_rd=1.05:0.00 / mixed_ref=1 / me_range=24 / chroma_me=1 /
Language : English
Default : Yes
Forced : No
Color range : Limited
Matrix coefficients : BT.709

Audio #1
ID : 2
Format : AC-3
Format/Info : Audio Coding 3
Format settings, Endianness : Big
Codec ID : A_AC3
Duration : 2 h 6 min
Bit rate mode : Constant
Bit rate : 640 kb/s
Channel(s) : 6 channels
Channel positions : Front: L C R, Side: L R, LFE
Sampling rate : 48.0 kHz
Frame rate : 31.250 FPS (1536 SPF)
Bit depth : 16 bits
Compression mode : Lossy
Stream size : 580 MiB (4%)
Language : English
Service kind : Complete Main
Default : Yes
Forced : No

Audio #2
ID : 3
Format : AC-3
Format/Info : Audio Coding 3
Mode : Dolby Digital
Format settings, Endianness : Big
Codec ID : A_AC3
Duration : 2 h 6 min
Bit rate mode : Constant
Bit rate : 224 kb/s
Channel(s) : 2 channels
Channel positions : Front: L R
Sampling rate : 48.0 kHz
Frame rate : 31.250 FPS (1536 SPF)
Bit depth : 16 bits
Compression mode : Lossy
Stream size : 203 MiB (1%)
Title : Commentary
Language : English
Service kind : Complete Main
Default : No
Forced : No
Oan Hồn (1990) – 1080p 4K Remastered Blu-ray AVC TrueHD 5.1 – KiFFLOM
Oan Hồn (1990) – 1080p 4K Remastered Blu-ray AVC TrueHD 5.1 – KiFFLOM
Oan Hồn (1990) – 1080p 4K Remastered Blu-ray AVC TrueHD 5.1 – KiFFLOM
Oan Hồn (1990) – 1080p 4K Remastered Blu-ray AVC TrueHD 5.1 – KiFFLOM
Oan Hồn (1990) – 1080p 4K Remastered Blu-ray AVC TrueHD 5.1 – KiFFLOM
Oan Hồn (1990) – 1080p 4K Remastered Blu-ray AVC TrueHD 5.1 – KiFFLOM
Oan Hồn (1990) – 1080p 4K Remastered Blu-ray AVC TrueHD 5.1 – KiFFLOM
Oan Hồn (1990) – 1080p 4K Remastered Blu-ray AVC TrueHD 5.1 – KiFFLOM
Oan Hồn (1990) – 1080p 4K Remastered Blu-ray AVC TrueHD 5.1 – KiFFLOM
Oan Hồn (1990) – 1080p 4K Remastered Blu-ray AVC TrueHD 5.1 – KiFFLOM
Original title Ghost
IMDb Rating 7.1 208,698 votes
TMDb Rating 7.2 4,397 votes

Director

Cast

Demi Moore isMolly Jensen
Molly Jensen
Whoopi Goldberg isOda Mae Brown
Oda Mae Brown
Tony Goldwyn isCarl Bruner
Carl Bruner
Vincent Schiavelli isSubway Ghost
Subway Ghost
Rick Aviles isWillie Lopez
Willie Lopez
Phil Leeds isEmergency Room Ghost
Emergency Room Ghost
Armelia McQueen isOda Mae's Sister
Oda Mae's Sister

Similar titles

Lưỡi Hái Tử Thần 4 – ViE 1080p Blu-ray Remux AVC DTS-HD MA 5.1-MBH
Viên Đạn Bí Ẩn (2017) – BluRay 1080p DTS-HD MA5.1 x264-MTeam
Điệp Vụ Tokyo 2000 – Blu-ray 1080p AVC TrueHD 5.1-REGRET.iso
Bố Già (1972) – 1080p ViE Blu-ray AVC TrueHD 5.1-KiD
Vụ Khủng Bố Không Tưởng (2010) – 720p BluRay DTS x264-HiDt
Ma Thuật Tình Yêu (2011) – ViE 720p BluRay DD5.1 x264-EbP
Bí Ẩn Vùng Ngoại Ô (2017)
Chuyện Tình Của Ali Và Nino (2016) – 1080p BluRay x264-EXCLUDED
Mắt Biếc 2019 – 1080p NF WEB-DL DDP5.1 x264 – Vietsub
Trải Nghiệm Điểm Chết (2017) – 1080p BluRay DTS x264-GECKOS
Hoàng Phi Hồng (1991) – 1080p Blu-ray AVC TrueHD 7.1.iso
Thái Quyền Đo Ván (2010) – 720p BluRay x264-METH