What's happening?

Tàu Ngầm U-571

Tàu Ngầm U-571

U-571Apr. 20, 2000France116 Min.PG-13
Your rating: 0
6 1 vote

Video Sources 23 Views Report Error

  • Trailer
Trulli

Bộ phim lấy bối cảnh cuộc chiến tranh thế giới lần thứ hai, khi các trận thủy chiến trở nên khốc liệt và tàn bạo nhất. Quân Đức đang có nhiều lợi thế vì đối thủ của họ không có khả năng bẽ các mã bảo vệ để xâm nhập vào hệ thống của Đức. Nhưng cho đến khi con tàu mang mã hiệu U phát ra tín hiệu khẩn SOS, thì quân Đồng Minh đã chộp lấy cơ hội và xâm nhập vào hệ thống bảo vệ của Đức. Nhưng chiếm được con tàu chỉ là bước đơn giản nhất. Trận chiến chỉ mới bắt đầu khi quân Đồng Minh bị mắc cạn trên chính con tàu ấy.


Format : AVC
Format/Info : Advanced Video Codec
Format profile : High@L4.1
Format settings : CABAC / 4 Ref Frames
Format settings, CABAC : Yes
Format settings, Reference frames : 4 frames
Format settings, GOP : M=3, N=18
Codec ID : V_MPEG4/ISO/AVC
Duration : 1 h 55 min
Bit rate mode : Variable
Bit rate : 20.5 Mb/s
Maximum bit rate : 35.0 Mb/s
Width : 1 920 pixels
Height : 1 080 pixels
Display aspect ratio : 16:9
Frame rate mode : Constant
Frame rate : 24.000 FPS
Standard : NTSC
Color space : YUV
Chroma subsampling : 4:2:0
Bit depth : 8 bits
Scan type : Progressive
Bits/(Pixel*Frame) : 0.412
Stream size : 16.6 GiB (76%)
Language : English
Default : Yes
Forced : No
Color range : Limited
Color primaries : BT.709
Transfer characteristics : BT.709
Matrix coefficients : BT.709

Audio #1
ID : 2
Format : DTS XLL
Format/Info : Digital Theater Systems
Commercial name : DTS-HD Master Audio
Codec ID : A_DTS
Duration : 1 h 55 min
Bit rate mode : Variable
Bit rate : 4 369 kb/s
Channel(s) : 6 channels
Channel layout : C L R Ls Rs LFE
Sampling rate : 48.0 kHz
Frame rate : 93.750 FPS (512 SPF)
Bit depth : 24 bits
Compression mode : Lossless
Stream size : 3.54 GiB (16%)
Language : English
Default : No
Forced : No

Audio #2
ID : 3
Format : DTS
Format/Info : Digital Theater Systems
Codec ID : A_DTS
Duration : 1 h 56 min
Bit rate mode : Constant
Bit rate : 1 536 kb/s
Channel(s) : 6 channels
Channel layout : C L R Ls Rs LFE
Sampling rate : 48.0 kHz
Frame rate : 93.750 FPS (512 SPF)
Bit depth : 24 bits
Compression mode : Lossy
Stream size : 1.25 GiB (6%)
Language : Vietnamese
Default : Yes
Forced : No

Audio #3
ID : 4
Format : AC-3
Format/Info : Audio Coding 3
Commercial name : Dolby Digital
Codec ID : A_AC3
Duration : 1 h 56 min
Bit rate mode : Constant
Bit rate : 640 kb/s
Channel(s) : 6 channels
Channel layout : L R C LFE Ls Rs
Sampling rate : 48.0 kHz
Frame rate : 31.250 FPS (1536 SPF)
Compression mode : Lossy
Stream size : 532 MiB (2%)
Language : Vietnamese
Service kind : Complete Main
Default : No
Forced : No
Tàu Ngầm U-571
Tàu Ngầm U-571
Tàu Ngầm U-571
Original title U-571
IMDb Rating 6.6 80,986 votes
TMDb Rating 6.4 891 votes

Director

Cast

Matthew McConaughey isLt. Andrew Tyler
Lt. Andrew Tyler
Bill Paxton isLt. Cmdr. Mike Dahlgren
Lt. Cmdr. Mike Dahlgren
Harvey Keitel isCPO Henry Klough
CPO Henry Klough
Jon Bon Jovi isLt. Pete Emmett
Lt. Pete Emmett
David Keith isMaj. Matthew Coonen
Maj. Matthew Coonen
Thomas Kretschmann isCapt. Lt. Gunther Wassner
Capt. Lt. Gunther Wassner
Jake Weber isLt. Hirsch
Lt. Hirsch
Jack Noseworthy isBill Wentz
Bill Wentz
Tom Guiry isTed Trigger Fitzgerald
Ted Trigger Fitzgerald
Will Estes isRonald Rabbit Parker
Ronald Rabbit Parker

Similar titles

Chiến Binh Rambo 2 (1985) – 2160p Bluray Remux HDR DTS-HDMA 5.1
24 Giờ Hồi Sinh (2017) – BluRay 1080p AVC DTS-HD MA5.1-MTeam
Cuộc Chiến Kim Chi 2 (2010) – 720p HDTV x264-KiSHD
Quỷ Quyệt (2010) – Blu-ray 1080p AVC DTS-HD MA 5.1 tater44-BluRG.iso
Chiến Lang 2 (2017) – 1080p Blu-ray Remux AVC DTS-HD MA.7.1 HDT
Bản Đồ Định Mệnh (2011) – 720p BluRay DTS x264-HiDt
Kiến Đảng Vĩ Nghiệp (2011) – mHD BluRay DD5.1 x264-THD
Bố Già (1972) – 1080p ViE Blu-ray AVC TrueHD 5.1-KiD
Gái Gọi Hộp Đêm (2017) – BluRay 1080p AVC Dolby TrueHD Audio 7.1-MTeam
Con Thiên Chúa – TW Blu-ray 1080p AVC DTS-HD MA 5.1-TTG.iso
Hiểm Nguy Di Động (2010) – REMUX 1080p BluRay DTS-HD MA 5.1 AVC-LEGi0N
Mật Mã Sống Còn (2011) – COMPLETE UHD BLURAY-WhiteRhino