What's happening?

Thập Diện Mai Phục (2004) – HKG 1080p Blu-ray AVC LPCM 5.1-PTer.iso

Thập Diện Mai Phục (2004) – HKG 1080p Blu-ray AVC LPCM 5.1-PTer.iso

May. 19, 2004China119 Min.PG-13
Your rating: 0
9 1 vote

Video Sources 37 Views Report Error

  • Trailer

Thập diện Mai Phục lấy bối cảnh năm 859 sau Công nguyên tại Trung Hoa.Tổ chức Phi Đao Môn chống lại triều đình bệ rạc đã cài được kiếm khách Lưu bộ đầu làm nội gián trong hàng ngũ binh lính triều đình, giữ chức đội trưởng cùng với Kim bộ đầu. Theo kế hoạch của Lưu, Kim chấp nhận giả làm người giải cứu cho kỹ nữ mù Tiểu Muội để tìm cách tiêu diệt Phi đao môn. Chàng không ngờ cô gái mù mà mình trót đem lòng yêu, thực ra chỉ là con mồi nhằm đưa Kim và cả triều đình vào bẫy…


Format : Matroska
Format version : Version 2
File size : 15.5 GiB
Duration : 1 h 59 min
Overall bit rate : 18.6 Mb/s
Encoded date : UTC 2012-01-02 04:54:28
Writing application : mkvmerge v5.2.0 ('I can't explain') built on Dec 18 2011 18:12:03
Writing library : libebml v1.2.3 + libmatroska v1.3.0

Video
ID : 1
Format : AVC
Format/Info : Advanced Video Codec
Format profile : High@L4.1
Format settings, CABAC : Yes
Format settings, ReFrames : 5 frames
Codec ID : V_MPEG4/ISO/AVC
Duration : 1 h 59 min
Bit rate : 18.0 Mb/s
Width : 1 920 pixels
Height : 808 pixels
Display aspect ratio : 2.40:1
Frame rate mode : Constant
Frame rate : 23.976 (24000/1001) FPS
Color space : YUV
Chroma subsampling : 4:2:0
Bit depth : 8 bits
Scan type : Progressive
Bits/(Pixel*Frame) : 0.484
Stream size : 14.7 GiB (95%)
Title : House of Flying Daggers.2004.1080p.BluRay.x264-EbP
Writing library : x264 core 115 r1995 c1e60b9

Audio
ID : 2
Format : AC-3
Format/Info : Audio Coding 3
Mode extension : CM (complete main)
Format settings, Endianness : Big
Codec ID : A_AC3
Duration : 1 h 59 min
Bit rate mode : Constant
Bit rate : 640 kb/s
Channel(s) : 6 channels
Channel positions : Front: L C R, Side: L R, LFE
Sampling rate : 48.0 kHz
Frame rate : 31.250 FPS (1536 spf)
Bit depth : 16 bits
Compression mode : Lossy
Stream size : 546 MiB (3%)
Title : CHINESE AC3 5.1
Language : Chinese
Default : Yes
Forced : No
Thập Diện Mai Phục (2004) – HKG 1080p Blu-ray AVC LPCM 5.1-PTer.iso
Thập Diện Mai Phục (2004) – HKG 1080p Blu-ray AVC LPCM 5.1-PTer.iso
Thập Diện Mai Phục (2004) – HKG 1080p Blu-ray AVC LPCM 5.1-PTer.iso
Thập Diện Mai Phục (2004) – HKG 1080p Blu-ray AVC LPCM 5.1-PTer.iso
Thập Diện Mai Phục (2004) – HKG 1080p Blu-ray AVC LPCM 5.1-PTer.iso
Thập Diện Mai Phục (2004) – HKG 1080p Blu-ray AVC LPCM 5.1-PTer.iso
Thập Diện Mai Phục (2004) – HKG 1080p Blu-ray AVC LPCM 5.1-PTer.iso
Thập Diện Mai Phục (2004) – HKG 1080p Blu-ray AVC LPCM 5.1-PTer.iso
Original title 十面埋伏
IMDb Rating 7.5 110,563 votes
TMDb Rating 7.3 1,185 votes

Director

Zhang Yimou
Director

Cast

Similar titles

Chiến Binh Rambo 2 (1985) – 2160p Bluray Remux HDR DTS-HDMA 5.1
Chủng Tộc Bất Tử (2021) – 2160p WEB-DL DDP5.1 Atmos H.265-EVO
Người trong giang hồ 4 – 1080p NF.WEB-DL DDP2.0 x264-Ao
Gái Gọi Hộp Đêm (2017) – BluRay 1080p AVC Dolby TrueHD Audio 7.1-MTeam
Người trong giang hồ 5 – 1080p NF WEB-DL DDP2.0 x264-Ao
Nguy Hiểm Tột Cùng (1996) – 1080p BluRay x264-SECTOR7
Dị Nhân: Thế Hệ Đầu Tiên (2011) – 2160p Blu-ray Remux AVC DTS-HD MA 5.1-EPiK.iso
Ma Trận 1999 – Remastered Complete Blu-ray Coaster.iso
Kiến Đảng Vĩ Nghiệp (2011) – mHD BluRay DD5.1 x264-THD
Điểm Tâm Ở Tiffany (1961) – 50th Anniversary Edition 1080p Blu-ray REMUX AVC DTS-HD MA.5.1 HDRoad
Giải Cứu Binh Nhì Ryan (1998) – 2160p CEE UHD Blu-Ray HEVC TrueHD 7.1-FLAME.iso
Thái Quyền Đo Ván (2010) – 720p BluRay x264-METH