What's happening?

Truy Tìm Tượng Phật 2 (2008) – 1080p Blu-ray AVC VC-1 DTS-HD MA 5.1.iso

Truy Tìm Tượng Phật 2 (2008) – 1080p Blu-ray AVC VC-1 DTS-HD MA 5.1.iso

Ong Bak 2Dec. 04, 2008Thailand98 Min.R
Your rating: 0
8 1 vote

Video Sources 12 Views Report Error

  • Trailer

Tóm Tắt Phim Truy Tìm Tượng Phật 2 (2008)

Ong bak 2 không phải là tập tiếp theo của bộ phim gốc năm 2003. Câu chuyện đưa ta về thế kỷ 15 tại Thái Lan với nhân vật chính là Tien. Mang trong mình dòng máu quí tộc, nên ngay từ nhỏ Tien đã không được cha cho luyện tập võ thuật. Thay vào đó cậu được đưa tới một lớp dậy múa Khon truyền thống.

Không may cả gia đình cậu bị kẻ thù giết hại. Sau khi đau đớn chứng kiến cái chết của cả cha lẫn mẹ, Tien bị truy sát gắt gao bởi một nhóm người hành tung bí ẩn. Lưu lạc khắp nơi, thậm chí còn bị bắt làm nô lệ, cậu được Chernung thủ lĩnh của băng cướp Garuda Wing Cliff khét tiếng cưu mang.

Nhận thấy tố chất hiếm có trong người cậu bé, Chernung cùng những cao thủ khác trong làng truyền thụ toàn bộ võ công cho Tien. Thời gian thấm thoát thoi đưa, cậu bé còn non nớt ngày nào nay đã là truyền nhân của Chernung và sẽ trở thành vị thủ lĩnh tài ba. Nhưng anh vẫn còn nhớ như in nỗi đau năm xưa. Tien quyết định quay trở về để trả thù cho gia đình nhưng lại phát hiện ra một sự thật tàn nhẫn.

Thông Tin Video Truy Tìm Tượng Phật 2 (2008)

General                          : Truy Tìm Tượng Phật 2 (2008) - 1080p Blu-ray AVC VC-1 DTS-HD MA 5.1.iso
Format                           : Matroska
File size                        : 22.5 GiB

Duration                         : 1h 37mn
Overall bit rate                 : 15.4 Mbps
Encoded date                     : UTC 2010-01-16 04:34:40
Writing application              : mkvmerge v3.0.0 ('Hang up your Hang-Ups') built on Dec 12 2009 15:20:35
Writing library                  : libebml v0.7.9 + libmatroska v0.8.1
Video
ID                               : 1
Format                           : AVC
Format/Info                      : Advanced Video Codec
Format profile                   : High@L4.1
Format settings, CABAC           : Yes
Format settings, ReFrames        : 5 frames
Muxing mode                      : Container profile=Unknown@4.1


Codec ID                         : V_MPEG4/ISO/AVC
Duration                         : 1h 37mn
Bit rate                         : 13.6 Mbps
Nominal bit rate                 : 13.9 Mbps
Width                            : 1 920 pixels
Height                           : 816 pixels
Display aspect ratio             : 2.35
Frame rate                       : 24.000 fps
Resolution                       : 24 bits
Colorimetry                      : 4:2:0
Scan type                        : Progressive
Bits/(Pixel*Frame)               : 0.362
Stream size                      : 22.5 GiB (88%)
Title                            : x264 - 2 passes @ 60% of the original bitrate
Writing library                  : x264 core 80 r1376M 3feaec2
Encoding settings                : cabac=1 / ref=5 / deblock=1:-3:-3
 / analyse=0x3:0x113 / me=umh / subme=10 / psy=1
 / psy_rd=1.0:0.0 / mixed_ref=1 / me_range=64 / chroma_me=1
 / trellis=2 / 8x8dct=1 / cqm=0 / deadzone=21,11 / fast_pskip=1
 / chroma_qp_offset=-2 / threads=12 / sliced_threads=0 / nr=0 
/ decimate=1 / mbaff=0 / constrained_intra=0 / bframes=5 
/ b_pyramid=2 / b_adapt=2 / b_bias=0 / direct=1 / wpredb=1 
/ wpredp=2 / keyint=250 / keyint_min=25 / scenecut=40 
/ rc_lookahead=50 / rc=2pass / mbtree=1 / bitrate=13904 
/ ratetol=1.0 / qcomp=0.80 / qpmin=10 / qpmax=51 / qpstep=4
 / cplxblur=20.0 / qblur=0.5 / ip_ratio=1.40 / aq=1:0.50
Language                         : tai
Audio
ID                               : 2
Format                           : DTS
Format/Info                      : Digital Theater Systems
Codec ID                         : A_DTS
Duration                         : 1h 37mn
Bit rate mode                    : Constant
Bit rate                         : 1 510 Kbps
Channel(s)                       : 6 channels
Channel positions                : Front: L C R, Surround: L R, LFE
Sampling rate                    : 48.0 KHz
Resolution                       : 24 bits
Stream size                      : 1.03 GiB (10%)
Title                            : DTS - 1536 kbit/sec
Language                         : tai
Text #1
ID                               : 3
Format                           : UTF-8
Codec ID                         : S_TEXT/UTF8
Codec ID/Info                    : UTF-8 Plain Text
Language                         : English
Text #2
ID                               : 4
Format                           : UTF-8
Codec ID                         : S_TEXT/UTF8
Codec ID/Info                    : UTF-8 Plain Text
Language                         : Dutch
Truy Tìm Tượng Phật 2 (2008) – 1080p Blu-ray AVC VC-1 DTS-HD MA 5.1.iso
Truy Tìm Tượng Phật 2 (2008) – 1080p Blu-ray AVC VC-1 DTS-HD MA 5.1.iso
Original title Ong Bak 2
IMDb Rating 6.2 30,368 votes
TMDb Rating 6.4 480 votes

Director

Tony Jaa
Director

Cast

Tim Man isTiger Style Assassin
Tiger Style Assassin
Dan Chupong isCrow Ghost (uncredited)
Crow Ghost (uncredited)

Similar titles

Người Dơi: Hiệp Sĩ Bóng Đêm Trỗi Dậy UHD Blu-Ray 2160p HEVC DTS-HD MA 5.1-CHDBits.iso
Nguy Hiểm Tột Cùng (1996) – 1080p BluRay x264-SECTOR7
Thập Diện Mai Phục (2004) – HKG 1080p Blu-ray AVC LPCM 5.1-PTer.iso
Trí Lực Siêu Phàm (2011) – UNRATED 1080p Hybrid ReMuX AVC DTS-HD MA 5.1-BiZKiT
Quan Vân Trường (2011) – mHD BluRay x264-EPiK-Kulee
Người Trong Giang Hồ 6 – BluRay REMUX 1080p AVC LPCM2.0-HDS
Ông Trùm Mặt Sẹo (1983) – 1080p BluRay DTS x264 FoRM HDmovie
Người trong giang hồ 5 – 1080p NF WEB-DL DDP2.0 x264-Ao
Người Trong Giang Hồ 1 – 1080p NF WEB-DL AAC2.0 x264
Kiến Đảng Vĩ Nghiệp (2011) – mHD BluRay DD5.1 x264-THD
Quyền Cước Thượng Đẳng (2008) – ViE 1080p BluRay Remux AVC DTS-HD MA 5.1-MBH
Dị Nhân: Thế Hệ Đầu Tiên (2011) – 2160p Blu-ray Remux AVC DTS-HD MA 5.1-EPiK.iso