What's happening?

Dị Nhân: Thế Hệ Đầu Tiên (2011) – 2160p Blu-ray Remux AVC DTS-HD MA 5.1-EPiK.iso

Dị Nhân: Thế Hệ Đầu Tiên (2011) – 2160p Blu-ray Remux AVC DTS-HD MA 5.1-EPiK.iso

X-Men: First Class 35mm SpeciaMay. 27, 2011United Kingdom30 Min.Not Rated
Your rating: 0
8 1 vote

Video Sources 47 Views Report Error

  • Trailer
Trulli

Bối cảnh phim Dị Nhân Thế Hệ Đầu Tiên là thập niên 60, bình minh của kỷ nguyên vũ trụ và một xã hội tràn ngập những hy vọng phồn vinh của tổng thống J.F.Kennedy. Nhưng khi xem phim này bạn sẽ biết đó cũng là lúc sự căng thẳng leo thang giữa Hoa Kỳ và Liên Xô, đe dọa sự tồn vong của nhân loại. Và đó cũng là lúc những người đột biến xuất hiện… Nhân quyền là vấn đề quan trọng. Liệu người đột biến có được nhân loại chấp nhận hay bị xem như một mối đe dọa cần bị cách ly hay tiêu diệt? Liệu người đột biến nên thể hiện sức mạnh và thống trị như một loài ưu việc hay hòa nhập vào xã hội ?


Format : MPEG-4
Format profile : Base Media
Codec ID : isom
File size : 1.95 GiB
Duration : 2h 11mn
Overall bit rate mode : Variable
Overall bit rate : 2 126 Kbps
Encoded date : UTC 2014-10-03 02:15:03
Tagged date : UTC 2014-10-03 02:15:03

Video
ID : 1
Format : AVC
Format/Info : Advanced Video Codec
Format profile : High@L4.1
Format settings, CABAC : Yes
Format settings, ReFrames : 4 frames
Codec ID : avc1
Codec ID/Info : Advanced Video Coding
Duration : 2h 11mn
Bit rate : 2 028 Kbps
Maximum bit rate : 12.2 Mbps
Width : 1 920 pixels
Height : 800 pixels
Display aspect ratio : 2.40:1
Frame rate mode : Constant
Frame rate : 23.976 fps
Color space : YUV
Chroma subsampling : 4:2:0
Bit depth : 8 bits
Scan type : Progressive
Bits/(Pixel*Frame) : 0.055
Stream size : 1.86 GiB (95%)
Writing library : x264 core 142 r2409 d6b4e63
Encoded date : UTC 2014-10-03 02:15:03
Tagged date : UTC 2014-10-03 02:15:17
Color range : Limited
Color primaries : BT.709
Matrix coefficients : BT.709

Audio
ID : 2
Format : AAC
Format/Info : Advanced Audio Codec
Format profile : LC
Codec ID : 40
Duration : 2h 11mn
Bit rate mode : Variable
Bit rate : 93.7 Kbps
Maximum bit rate : 104 Kbps
Channel(s) : 2 channels
Channel positions : Front: L R
Sampling rate : 48.0 KHz
Compression mode : Lossy
Stream size : 88.2 MiB (4%)
Language : English
Original title X-Men: First Class 35mm Special
IMDb Rating 7.4 29 votes
TMDb Rating 7.3 4 votes

Similar titles

Ánh Sao Ma Thuật (2007) – BluRay 1080p DTS x264 dxva-EuReKA
Người Trong Giang Hồ 1 – 1080p NF WEB-DL AAC2.0 x264
Kẻ Hủy Diệt (1984) – Blu-ray CEE 1080p AVC DTS-HD MA 5.1.iso
Cơn Bão Kinh Hoàng (2000) – 1080p BluRay x264 AC3 5.1-FGT
Người Trong Giang Hồ 2 – 1080p NF WEB-DL AAC2.0 x264
Nguy Hiểm Tột Cùng (1996) – 1080p BluRay x264-SECTOR7
Hoàng Phi Hồng (1991) – 1080p Blu-ray AVC TrueHD 7.1.iso
Người Dơi: Hiệp Sĩ Bóng Đêm Trỗi Dậy UHD Blu-Ray 2160p HEVC DTS-HD MA 5.1-CHDBits.iso
Người Sắt (2008) – UHD BluRay 2160p HEVC TrueHD Atmos 7.1 BeyondHD.iso
Người Nhện: Không Còn Nhà (2021) – 1080p HDTS H264 AAC2.0-GDA
Trí Lực Siêu Phàm (2011) – UNRATED 1080p Hybrid ReMuX AVC DTS-HD MA 5.1-BiZKiT
Truy Lùng Cổ Vật (2017) – 1080p BluRay DD5.1 x264-EVO